<?xml version="1.0" standalone="no"?>
<!DOCTYPE svg PUBLIC "-//W3C//DTD SVG 1.1//EN" "http://www.w3.org/Graphics/SVG/1.1/DTD/svg11.dtd">
<svg xmlns="http://www.w3.org/2000/svg">
<defs >
<font id="Rationale" horiz-adv-x="360" ><font-face
    font-family="Rationale"
    units-per-em="1000"
    panose-1="2 0 5 6 5 0 0 2 0 3"
    ascent="903"
    descent="-250"
    alphabetic="0" />
<glyph unicode=" " glyph-name="space" horiz-adv-x="195" />
<glyph unicode="!" glyph-name="exclam" horiz-adv-x="226" d="M152 700V187Q152 171 147 166T125 160H72V673Q72 689 77 694T99 700H152ZM160 0H99Q83 0 78 5T72 27V80H133Q149 80 154 75T160 53V0Z" />
<glyph unicode="&quot;" glyph-name="quotedbl" horiz-adv-x="321" d="M129 540H88Q72 540 67 545T61 567V700H102Q118 700 123 695T129 673V540ZM259 540H218Q202 540 197 545T191 567V700H232Q248 700 253 695T259 673V540Z" />
<glyph unicode="#" glyph-name="numbersign" horiz-adv-x="800" d="M438 700V27Q438 11 433 6T411 0H367L183 442L145 553H143L152 438V27Q152 11 147 6T125 0H72V673Q72 689 77 694T99 700H156L329 279L365 168H367L358 281V673Q358 689 363 694T385 700H438ZM617
410Q591 410 575 413T549 426T536 452T532 495V615Q532 641 535 657T548 683T574 696T617 700H661Q687 700 703 697T729 684T742 658T746 615V495Q746 469 743 453T730 427T704 414T661 410H617ZM597 510Q597 479 606 471T639 463Q664 463 672 471T681 510V600Q681
631 672 639T639 647Q614 647 606 639T597 600V510ZM532 358H719Q735 358 740 353T746 331V300H559Q543 300 538 305T532 327V358Z" />
<glyph unicode="$" glyph-name="dollar" horiz-adv-x="435" d="M114 80Q85 80 76 94T64 138H244Q275 138 283 151T291 195V277Q291 308 283 321T240 334H159Q107 334 86 355T64 429V515Q64 567 85 588T159 610H187V673Q187 689 192 694T214 700H255V610H313Q342
610 351 596T363 552H191Q160 552 152 539T144 495V449Q144 418 152 405T191 392H276Q328 392 349 371T371 297V175Q371 123 350 102T276 80H256V27Q256 11 251 6T229 0H190V80H114Z" />
<glyph unicode="%" glyph-name="percent" horiz-adv-x="631" d="M516 700L188 27Q180 11 172 6T148 0H95L423 673Q431 689 439 694T463 700H516ZM137 410Q111 410 95 413T69 426T56 452T52 495V615Q52 641 55 657T68 683T94 696T137 700H181Q207 700 223 697T249
684T262 658T266 615V495Q266 469 263 453T250 427T224 414T181 410H137ZM117 510Q117 479 126 471T159 463Q184 463 192 471T201 510V600Q201 631 192 639T159 647Q134 647 126 639T117 600V510ZM451 0Q425 0 409 3T383 16T370 42T366 85V205Q366 231 369 247T382
273T408 286T451 290H495Q521 290 537 287T563 274T576 248T580 205V85Q580 59 577 43T564 17T538 4T495 0H451ZM431 100Q431 69 440 61T473 53Q498 53 506 61T515 100V190Q515 221 506 229T473 237Q448 237 440 229T431 190V100Z" />
<glyph unicode="&amp;" glyph-name="ampersand" horiz-adv-x="453" d="M422 334H359V27Q359 11 354 6T332 0H285V334H193Q162 334 154 321T146 277V115Q146 84 154 71T193 58H245V27Q245 11 241 6T220 0H161Q109 0 88 21T66 95V277Q66 353 121 367V369Q92 376
79 397T66 459V605Q66 657 87 678T161 700H289Q318 700 327 686T339 642H193Q162 642 154 629T146 585V449Q146 418 154 405T193 392H285V423Q285 439 290 444T312 450H359V392H397Q413 392 417 387T422 365V334Z" />
<glyph unicode="&apos;" glyph-name="quotesingle" horiz-adv-x="191" d="M129 540H88Q72 540 67 545T61 567V700H102Q118 700 123 695T129 673V540Z" />
<glyph unicode="(" glyph-name="parenleft" horiz-adv-x="280" d="M216 760Q232 760 236 755T241 733V702H194Q163 702 155 689T147 645V-15Q147 -46 155 -59T194 -72H241V-103Q241 -120 237 -125T216 -130H162Q110 -130 91 -109T71 -35V665Q71 717 90 738T162 760H216Z" />
<glyph unicode=")" glyph-name="parenright" horiz-adv-x="280" d="M119 760Q171 760 190 739T210 665V-35Q210 -87 191 -108T119 -130H65Q49 -130 45 -125T40 -103V-72H87Q118 -72 126 -59T134 -15V645Q134 676 126 689T87 702H40V733Q40 750 44 755T65 760H119Z" />
<glyph unicode="*" glyph-name="asterisk" horiz-adv-x="441" d="M79 656L191 591V694Q191 710 196 715T218 721H249V591L338 643Q352 651 359 649T374 633L390 606L278 541L367 490Q381 482 382 475T376 453L361 427L249 491V389Q249 373 244 368T222 362H191V491L102
440Q88 432 81 434T66 450L50 477L162 541L73 593Q59 601 58 608T64 630L79 656Z" />
<glyph unicode="+" glyph-name="plus" horiz-adv-x="436" d="M247 512V392H341Q357 392 362 387T368 365V334H247V239Q247 223 242 218T220 212H189V334H95Q79 334 74 339T68 361V392H189V485Q189 501 194 506T216 512H247Z" />
<glyph unicode="," glyph-name="comma" horiz-adv-x="215" d="M95 0H92Q76 0 71 5T65 27V80H126Q142 80 147 75T153 53V-32Q153 -48 150 -65T139 -97T120 -122T95 -136V0Z" />
<glyph unicode="-" glyph-name="hyphen" horiz-adv-x="432" d="M66 392H339Q355 392 360 387T366 365V334H93Q77 334 72 339T66 361V392Z" />
<glyph unicode="." glyph-name="period" horiz-adv-x="215" d="M153 0H92Q76 0 71 5T65 27V80H126Q142 80 147 75T153 53V0Z" />
<glyph unicode="/" glyph-name="slash" horiz-adv-x="392" d="M351 760L124 -94Q119 -110 113 -115T90 -121H41L268 733Q273 749 279 754T302 760H351Z" />
<glyph unicode="0" glyph-name="zero" horiz-adv-x="439" d="M145 115Q145 84 153 71T192 58H247Q278 58 286 71T294 115V585Q294 616 286 629T247 642H192Q161 642 153 629T145 585V115ZM70 605Q70 657 91 678T165 700H274Q326 700 347 679T369 605V95Q369 43
348 22T274 0H165Q113 0 92 21T70 95V605Z" />
<glyph unicode="1" glyph-name="one" horiz-adv-x="224" d="M152 27Q152 11 147 6T125 0H72V617Q72 658 92 675T152 700V27Z" />
<glyph unicode="2" glyph-name="two" horiz-adv-x="402" d="M340 429Q340 400 336 382T320 353T291 338T245 334H187Q172 334 163 332T148 323T142 306T140 277V115Q140 84 148 71T187 58H340V27Q340 11 335 6T313 0H155Q103 0 82 21T60 95V297Q60 326 64 344T80
373T109 388T155 392H213Q228 392 237 394T252 403T258 420T260 449V585Q260 616 252 629T213 642H66Q72 671 84 685T126 700H245Q297 700 318 679T340 605V429Z" />
<glyph unicode="3" glyph-name="three" horiz-adv-x="392" d="M238 585Q238 616 230 629T191 642H44Q50 671 62 685T104 700H223Q275 700 296 679T318 605V459Q318 418 309 397T271 369V368Q326 354 326 277V95Q326 43 305 22T231 0H112Q83 0 71 14T52 58H199Q230
58 238 71T246 115V277Q246 308 233 321T189 334H105V365Q105 381 110 386T132 392H195Q222 393 230 406T238 449V585Z" />
<glyph unicode="4" glyph-name="four" horiz-adv-x="430" d="M358 27Q358 11 353 6T331 0H278V334H143Q115 334 97 338T68 352T53 381T48 429V673Q48 689 53 694T75 700H128V449Q128 431 129 420T136 403T150 395T175 392H278V673Q278 689 283 694T305 700H358V27Z" />
<glyph unicode="5" glyph-name="five" horiz-adv-x="410" d="M142 642L141 392H257Q309 392 330 371T352 297V95Q352 43 331 22T257 0H121Q92 0 80 14T61 58H225Q256 58 264 71T272 115V277Q272 308 264 321T225 334H93Q77 334 72 339T66 361V673Q66 689 71 694T93
700H339V669Q339 653 335 648T314 642H142Z" />
<glyph unicode="6" glyph-name="six" horiz-adv-x="437" d="M284 392Q336 392 357 371T379 297V95Q379 43 358 22T284 0H165Q113 0 92 21T70 95V605Q70 657 91 678T165 700H304Q333 700 345 686T364 642H197Q166 642 158 629T150 585V115Q150 84 158 71T197 58H252Q283
58 291 71T299 115V277Q299 308 291 321T252 334H190V365Q190 381 194 386T215 392H284Z" />
<glyph unicode="7" glyph-name="seven" horiz-adv-x="358" d="M302 700Q317 700 321 695T326 673V642L154 0H78L249 642H33V673Q33 689 38 694T60 700H302Z" />
<glyph unicode="8" glyph-name="eight" horiz-adv-x="444" d="M295 277Q295 308 287 321T248 334H196Q165 334 157 321T149 277V115Q149 84 157 71T196 58H248Q279 58 287 71T295 115V277ZM295 589Q295 620 287 633T248 646H196Q165 646 157 633T149 589V449Q149
418 157 405T196 392H248Q279 392 287 405T295 449V589ZM69 277Q69 354 124 368V369Q95 376 82 397T69 459V605Q69 657 88 678T159 700H285Q337 700 356 679T375 605V459Q375 418 362 397T320 369V368Q375 354 375 277V95Q375 43 358 22T288 0H159Q107 0 88 21T69
95V277Z" />
<glyph unicode="9" glyph-name="nine" horiz-adv-x="427" d="M153 308Q101 308 80 329T58 403V605Q58 657 79 678T153 700H262Q314 700 335 679T357 605V95Q357 43 336 22T262 0H132Q103 0 91 14T72 58H230Q261 58 269 71T277 115V589Q277 620 269 633T230 646H185Q154
646 146 633T138 589V423Q138 392 146 379T185 366H237V335Q237 319 233 314T212 308H153Z" />
<glyph unicode=":" glyph-name="colon" horiz-adv-x="220" d="M154 0H93Q77 0 72 5T66 27V80H127Q143 80 148 75T154 53V0ZM154 370H93Q77 370 72 375T66 397V450H127Q143 450 148 445T154 423V370Z" />
<glyph unicode=";" glyph-name="semicolon" horiz-adv-x="220" d="M95 0H92Q76 0 71 5T65 27V80H126Q142 80 147 75T153 53V-32Q153 -48 150 -65T139 -97T120 -122T95 -136V0ZM153 370H92Q76 370 71 375T65 397V450H126Q142 450 147 445T153 423V370Z" />
<glyph unicode="&lt;" glyph-name="less" horiz-adv-x="349" d="M258 567L281 544Q292 533 292 526T280 507L118 346L280 185Q291 174 291 167T281 148L258 125L53 328Q34 346 53 364L258 567Z" />
<glyph unicode="=" glyph-name="equal" horiz-adv-x="436" d="M68 442H341Q357 442 362 437T368 415V384H95Q79 384 74 389T68 411V442ZM68 307H341Q357 307 362 302T368 280V249H95Q79 249 74 254T68 276V307Z" />
<glyph unicode="&gt;" glyph-name="greater" horiz-adv-x="349" d="M91 567L68 544Q57 533 57 526T69 507L231 346L69 185Q58 174 58 167T68 148L91 125L296 328Q315 346 296 364L91 567Z" />
<glyph unicode="?" glyph-name="question" horiz-adv-x="379" d="M184 0H123Q107 0 102 5T96 27V80H157Q173 80 178 75T184 53V0ZM96 315Q96 367 117 388T191 410H198Q229 410 237 423T245 467V585Q245 616 237 629T198 642H49Q55 671 67 685T109 700H230Q282
700 303 679T325 605V447Q325 395 304 374T230 352H223Q192 352 184 339T176 295V183Q176 167 171 162T149 156H96V315Z" />
<glyph unicode="@" glyph-name="at" horiz-adv-x="498" d="M304 128Q252 128 231 149T209 223V274Q209 326 230 347T304 369H362V382Q362 411 355 424T321 439H188Q157 439 149 426T141 382V115Q141 84 149 71T188 58H425V27Q425 11 420 6T398 0H161Q109 0 88
21T66 95V402Q66 454 87 475T161 497H350Q400 496 417 475T435 402V128H389Q373 128 368 133T362 155V311H325Q309 311 300 309T286 301T280 284T279 254V243Q279 225 280 214T287 196T301 188T326 186H331V155Q331 139 327 134T306 128H304Z" />
<glyph unicode="A" glyph-name="A" horiz-adv-x="477" d="M152 334V27Q152 11 147 6T125 0H72V605Q72 657 93 678T167 700H311Q363 700 384 679T406 605V27Q406 11 401 6T379 0H326V585Q326 614 319 627T285 642H193Q166 640 159 627T152 585V392H286V361Q286
345 282 340T261 334H152Z" />
<glyph unicode="B" glyph-name="B" horiz-adv-x="465" d="M217 0Q201 0 197 5T192 27V58H269Q300 58 308 71T316 115V277Q316 308 308 321T269 334H152V0H72V673Q72 689 77 694T99 700H301Q353 700 374 679T396 605V459Q396 382 341 369V367Q370 359 383 338T396
277V95Q396 43 375 22T301 0H217ZM152 642V392H275Q301 393 308 406T316 449V585Q316 616 308 629T269 642H152Z" />
<glyph unicode="C" glyph-name="C" horiz-adv-x="390" d="M165 0Q113 0 92 21T70 95V605Q70 657 91 678T165 700H294Q323 700 335 686T354 642H197Q166 642 158 629T150 585V115Q150 84 158 71T197 58H354V27Q354 11 350 6T329 0H165Z" />
<glyph unicode="D" glyph-name="D" horiz-adv-x="476" d="M217 0Q201 0 197 5T192 27V58H279Q310 58 318 71T326 115V585Q326 616 318 629T279 642H152V0H72V673Q72 689 77 694T99 700H311Q363 700 384 679T406 605V95Q406 43 385 22T311 0H217Z" />
<glyph unicode="E" glyph-name="E" horiz-adv-x="389" d="M152 334V58H343V27Q343 11 338 6T316 0H72V673Q72 689 77 694T99 700H343V669Q343 653 339 648T318 642H152V392H313V361Q313 345 309 340T288 334H152Z" />
<glyph unicode="F" glyph-name="F" horiz-adv-x="373" d="M343 700V669Q343 653 339 648T318 642H152V392H313V361Q313 345 309 340T288 334H152V27Q152 11 147 6T125 0H72V673Q72 689 77 694T99 700H343Z" />
<glyph unicode="G" glyph-name="G" horiz-adv-x="464" d="M165 0Q113 0 92 21T70 95V605Q70 657 91 678T165 700H360Q376 700 380 695T385 673V642H197Q166 642 158 629T150 585V115Q150 84 158 71T197 58H277Q308 58 316 71T324 115V334H238V365Q238 381 243
386T265 392H404V95Q404 43 382 22T308 0H165Z" />
<glyph unicode="H" glyph-name="H" horiz-adv-x="498" d="M426 700V27Q426 11 421 6T399 0H346V673Q346 689 351 694T373 700H426ZM152 334V27Q152 11 147 6T125 0H72V673Q72 689 77 694T99 700H152V392H306V361Q306 345 302 340T281 334H152Z" />
<glyph unicode="I" glyph-name="I" horiz-adv-x="224" d="M152 700V27Q152 11 147 6T125 0H72V673Q72 689 77 694T99 700H152Z" />
<glyph unicode="J" glyph-name="J" horiz-adv-x="224" d="M-32 -84Q-32 -68 -28 -63T-7 -57H25Q56 -57 64 -44T72 0V673Q72 689 77 694T99 700H152V-20Q152 -72 131 -93T57 -115H-32V-84Z" />
<glyph unicode="K" glyph-name="K" horiz-adv-x="457" d="M152 700V27Q152 11 147 6T125 0H72V673Q72 689 77 694T99 700H152ZM442 0H392Q376 0 362 6T341 27L192 328V399L333 673Q340 687 354 693T384 700H426L252 369L442 0Z" />
<glyph unicode="L" glyph-name="L" horiz-adv-x="388" d="M72 0V673Q72 689 77 694T99 700H152V58H363V27Q363 11 358 6T336 0H72Z" />
<glyph unicode="M" glyph-name="M" horiz-adv-x="640" d="M351 243Q344 228 338 222T318 216H286L147 582H141L149 461L154 27Q154 11 149 6T127 0H72V673Q72 689 77 694T99 700H166L294 374L316 291H322L345 374L471 673Q477 687 485 693T508 700H568V27Q568
11 563 6T541 0H488V461L497 582H491L351 243Z" />
<glyph unicode="N" glyph-name="N" horiz-adv-x="535" d="M338 272L393 123H399L383 275V673Q383 689 388 694T410 700H463V27Q463 11 458 6T436 0H384L199 420L143 581H137L152 441V27Q152 11 147 6T125 0H72V673Q72 689 77 694T99 700H153L338 272Z" />
<glyph unicode="O" glyph-name="O" horiz-adv-x="484" d="M150 115Q150 84 158 71T197 58H287Q318 58 326 71T334 115V585Q334 616 326 629T287 642H197Q166 642 158 629T150 585V115ZM70 605Q70 657 91 678T165 700H319Q371 700 392 679T414 605V95Q414 43 393
22T319 0H165Q113 0 92 21T70 95V605Z" />
<glyph unicode="P" glyph-name="P" horiz-adv-x="445" d="M269 352Q300 352 308 365T316 409V585Q316 616 308 629T269 642H152V27Q152 11 147 6T125 0H72V673Q72 689 77 694T99 700H301Q353 700 374 679T396 605V389Q396 337 375 316T301 294H217Q201 294 197
299T192 321V352H269Z" />
<glyph unicode="Q" glyph-name="Q" horiz-adv-x="484" d="M70 605Q70 657 91 678T165 700H319Q371 700 392 679T414 605V95Q414 43 393 22T319 0H263V-8Q263 -43 272 -54T310 -65H353V-96Q353 -112 349 -117T328 -123H290Q247 -123 226 -101T205 -28V0H165Q113
0 92 21T70 95V605ZM150 115Q150 84 158 71T197 58H287Q318 58 326 71T334 115V585Q334 616 326 629T287 642H197Q166 642 158 629T150 585V115Z" />
<glyph unicode="R" glyph-name="R" horiz-adv-x="468" d="M274 392Q305 392 313 405T321 449V585Q321 616 313 629T274 642H152V27Q152 11 147 6T125 0H72V673Q72 689 77 694T99 700H306Q358 700 379 679T401 605V429Q401 382 384 361T326 335L427 0H376Q360 0
353 5T340 27L247 334H217Q201 334 197 339T192 361V392H274Z" />
<glyph unicode="S" glyph-name="S" horiz-adv-x="396" d="M336 95Q336 43 315 22T241 0H119Q90 0 78 14T59 58H209Q240 58 248 71T256 115V277Q256 308 248 321T205 334H154Q102 334 81 355T59 429V605Q59 657 80 678T154 700H273Q302 700 314 686T333 642H186Q155
642 147 629T139 585V449Q139 418 147 405T186 392H241Q293 392 314 371T336 297V95Z" />
<glyph unicode="T" glyph-name="T" horiz-adv-x="422" d="M398 700V669Q398 653 393 648T371 642H251V27Q251 11 246 6T224 0H171V642H26V673Q26 689 31 694T53 700H398Z" />
<glyph unicode="U" glyph-name="U" horiz-adv-x="492" d="M420 700V95Q420 43 399 22T325 0H166Q114 0 93 21T71 95V673Q71 689 76 694T98 700H151V115Q151 84 159 71T198 58H293Q324 58 332 71T340 115V673Q340 689 345 694T367 700H420Z" />
<glyph unicode="V" glyph-name="V" horiz-adv-x="453" d="M31 673Q25 700 51 700H106L213 203L227 92H233L247 203L342 673Q346 689 353 694T376 700H426L282 27Q278 11 272 6T249 0H175L31 673Z" />
<glyph unicode="W" glyph-name="W" horiz-adv-x="711" d="M378 313L361 412H355L339 313L260 27Q256 11 250 6T227 0H160L38 673Q32 700 58 700H112L196 212L216 92H222L246 212L324 498Q326 503 331 508T345 513H399L470 212L495 92H501L520 212L596 673Q599
689 606 694T630 700H679L559 27Q555 11 549 5T526 -1H455L378 313Z" />
<glyph unicode="X" glyph-name="X" horiz-adv-x="437" d="M102 700L197 476L216 402H222L240 476L335 700H378Q394 700 398 695T403 673L264 348L402 27Q402 11 398 6T377 0H334L242 224L221 293H215L195 224L103 0H60Q44 0 40 5T35 27L173 348L34 673Q34 689
38 694T59 700H102Z" />
<glyph unicode="Y" glyph-name="Y" horiz-adv-x="420" d="M86 700L173 477L211 359H217L254 477L328 673Q333 688 340 694T364 700H409L249 294V28Q249 11 243 6T221 0H169V294L18 673Q12 689 19 694T43 700H86Z" />
<glyph unicode="Z" glyph-name="Z" horiz-adv-x="409" d="M63 0Q47 0 43 5T38 27V58L286 642H52V673Q52 689 56 694T77 700H341Q357 700 361 695T366 673V642L117 58H363V27Q363 11 359 6T338 0H63Z" />
<glyph unicode="[" glyph-name="bracketleft" horiz-adv-x="318" d="M74 -130V733Q74 749 79 754T101 760H280V729Q280 713 275 708T253 702H154V-72H280V-103Q280 -119 275 -124T253 -130H74Z" />
<glyph unicode="\" glyph-name="backslash" horiz-adv-x="386" d="M114 760L342 -94Q347 -110 343 -115T322 -121H273L45 733Q40 749 44 754T65 760H114Z" />
<glyph unicode="]" glyph-name="bracketright" horiz-adv-x="318" d="M65 -130Q49 -130 44 -125T38 -103V-72H164V702H65Q49 702 44 707T38 729V760H217Q233 760 238 755T244 733V-130H65Z" />
<glyph unicode="^" glyph-name="asciicircum" horiz-adv-x="310" d="M540 593Q547 585 543 577T525 568H498L413 652L328 568H304Q290 568 286 576T289 593L362 682Q377 700 395 700H454L540 593Z" />
<glyph unicode="_" glyph-name="underscore" horiz-adv-x="450" d="M0 0H423Q439 0 444 -5T450 -27V-58H27Q11 -58 6 -53T0 -31V0Z" />
<glyph unicode="`" glyph-name="grave" horiz-adv-x="255" d="M72 676Q72 690 77 695T97 700H146L203 583Q206 578 206 569T187 559H161L72 676Z" />
<glyph unicode="a" glyph-name="a" horiz-adv-x="436" d="M291 393Q291 424 283 437T244 450H71Q77 479 89 493T131 508H276Q328 508 349 487T371 413V0H318Q302 0 297 5T291 27V393ZM146 0Q94 0 73 21T51 95V205Q51 257 72 278T146 300H231Q260 300 272 286T291
242H178Q147 242 139 229T131 185V107Q131 76 142 67T185 58H251V27Q251 11 247 6T226 0H146Z" />
<glyph unicode="b" glyph-name="b" horiz-adv-x="459" d="M301 508Q353 508 374 487T396 413V95Q396 43 375 22T301 0H206Q177 0 165 14T146 58V27Q146 11 141 6T119 0H66V673Q66 689 71 694T93 700H146V58H269Q300 58 308 71T316 115V393Q316 424 308 437T269
450H186V481Q186 497 190 502T211 508H301Z" />
<glyph unicode="c" glyph-name="c" horiz-adv-x="355" d="M288 508Q304 508 308 503T313 481V450H190Q159 450 151 437T143 393V115Q143 84 151 71T190 58H313V27Q313 11 309 6T288 0H158Q106 0 85 21T63 95V413Q63 465 84 486T158 508H288Z" />
<glyph unicode="d" glyph-name="d" horiz-adv-x="458" d="M393 700V27Q393 11 388 6T366 0H313V673Q313 689 318 694T340 700H393ZM158 0Q106 0 85 21T63 95V413Q63 465 84 486T158 508H253Q282 508 294 494T313 450H190Q159 450 151 437T143 393V115Q143 84 151
71T190 58H273V27Q273 11 269 6T248 0H158Z" />
<glyph unicode="e" glyph-name="e" horiz-adv-x="413" d="M334 58V27Q334 11 330 6T309 0H158Q106 0 85 21T63 95V413Q63 465 84 486T158 508H268Q320 508 341 487T363 413V301Q363 249 342 228T268 206H208Q192 206 188 211T183 233V264H241Q272 264 280 277T288
321V398Q288 429 278 439T237 450H194Q161 450 152 439T143 393V115Q143 84 151 71T190 58H334Z" />
<glyph unicode="f" glyph-name="f" horiz-adv-x="301" d="M281 700Q297 700 301 695T306 673V642H193Q178 642 169 640T154 632T148 615T146 585V508H244Q260 508 264 503T269 481V450H146V27Q146 11 141 6T119 0H66V605Q66 657 87 678T161 700H281Z" />
<glyph unicode="g" glyph-name="g" horiz-adv-x="473" d="M158 0Q106 0 85 21T63 95V413Q63 465 84 486T158 508H253Q282 508 294 494T313 450H190Q159 450 151 437T143 393V115Q143 84 151 71T190 58H273V27Q273 11 269 6T248 0H158ZM88 -201Q72 -201 68 -196T63
-174V-143H266Q281 -143 290 -141T305 -133T311 -116T313 -86V481Q313 497 318 502T340 508H393V-106Q393 -158 372 -179T298 -201H88Z" />
<glyph unicode="h" glyph-name="h" horiz-adv-x="460" d="M396 27Q396 11 391 6T369 0H316V393Q316 424 308 437T269 450H146V27Q146 11 141 6T119 0H66V673Q66 689 71 694T93 700H146V450Q152 479 164 493T206 508H301Q353 508 374 487T396 413V27Z" />
<glyph unicode="i" glyph-name="i" horiz-adv-x="210" d="M61 615Q61 631 66 636T88 642H149V589Q149 573 144 568T122 562H61V615ZM145 508V27Q145 11 140 6T118 0H65V481Q65 497 70 502T92 508H145Z" />
<glyph unicode="j" glyph-name="j" horiz-adv-x="211" d="M65 481Q65 497 70 502T92 508H145V-118Q145 -159 125 -176T65 -201V481ZM61 615Q61 631 66 636T88 642H149V589Q149 573 144 568T122 562H61V615Z" />
<glyph unicode="k" glyph-name="k" horiz-adv-x="418" d="M146 27Q146 11 141 6T119 0H66V673Q66 689 71 694T93 700H146V27ZM176 307L286 481Q294 495 301 501T324 508H387L235 282L397 0H328Q312 0 305 6T290 27L176 243V307Z" />
<glyph unicode="l" glyph-name="l" horiz-adv-x="221" d="M151 700V27Q151 11 146 6T124 0H71V673Q71 689 76 694T98 700H151Z" />
<glyph unicode="m" glyph-name="m" horiz-adv-x="697" d="M389 27Q389 11 384 6T362 0H309V393Q309 424 301 437T262 450H145V27Q145 11 140 6T118 0H65V481Q65 497 70 502T92 508H145V450Q151 479 163 493T205 508H294Q346 508 367 487T389 413V27ZM633 27Q633
11 628 6T606 0H553V393Q553 424 545 437T506 450H386Q392 479 404 493T446 508H538Q590 508 611 487T633 413V27Z" />
<glyph unicode="n" glyph-name="n" horiz-adv-x="459" d="M300 508Q352 508 373 487T395 413V27Q395 11 390 6T368 0H315V393Q315 424 307 437T268 450H145V27Q145 11 140 6T118 0H65V481Q65 497 70 502T92 508H145V450Q151 479 163 493T205 508H300Z" />
<glyph unicode="o" glyph-name="o" horiz-adv-x="456" d="M63 413Q63 465 84 486T158 508H298Q350 508 371 487T393 413V95Q393 43 372 22T298 0H158Q106 0 85 21T63 95V413ZM190 450Q159 450 151 437T143 393V115Q143 84 151 71T190 58H266Q297 58 305 71T313
115V393Q313 424 305 437T266 450H190Z" />
<glyph unicode="p" glyph-name="p" horiz-adv-x="458" d="M300 508Q352 508 373 487T395 413V95Q395 43 374 22T300 0H205Q176 0 164 14T145 58V-174Q145 -190 140 -195T118 -201H65V481Q65 497 70 502T92 508H145V58H268Q299 58 307 71T315 115V393Q315 424 307
437T268 450H185V481Q185 497 189 502T210 508H300Z" />
<glyph unicode="q" glyph-name="q" horiz-adv-x="459" d="M313 -201V481Q313 497 318 502T340 508H393V-174Q393 -190 388 -195T366 -201H313ZM158 0Q106 0 85 21T63 95V413Q63 465 84 486T158 508H253Q282 508 294 494T313 450H190Q159 450 151 437T143 393V115Q143
84 151 71T190 58H273V27Q273 11 269 6T248 0H158Z" />
<glyph unicode="r" glyph-name="r" horiz-adv-x="310" d="M145 450V27Q145 11 140 6T118 0H65V481Q65 497 70 502T92 508H145V450Q158 484 172 496T215 508H254Q270 508 274 503T279 481V450H145Z" />
<glyph unicode="s" glyph-name="s" horiz-adv-x="375" d="M142 225Q116 225 100 229T74 243T61 271T57 314V413Q57 465 78 486T152 508H286Q302 508 306 503T311 481V450H179Q148 450 140 437T132 393V340Q132 322 133 311T140 293T154 285T179 283H236Q262 283
278 279T304 265T317 237T321 194V95Q321 43 300 22T226 0H82Q66 0 62 5T57 27V58H199Q230 58 238 71T246 115V168Q246 199 238 212T199 225H142Z" />
<glyph unicode="t" glyph-name="t" horiz-adv-x="304" d="M244 508Q260 508 264 503T269 481V450H146V115Q146 84 154 71T193 58H280Q278 29 269 15T230 0H161Q109 0 88 21T66 95V597Q66 613 71 618T93 624H146V508H244Z" />
<glyph unicode="u" glyph-name="u" horiz-adv-x="459" d="M314 0V481Q314 497 319 502T341 508H394V27Q394 11 389 6T367 0H314ZM64 481Q64 497 69 502T91 508H144V115Q144 84 152 71T191 58H274V27Q274 11 270 6T249 0H159Q107 0 86 21T64 95V481Z" />
<glyph unicode="v" glyph-name="v" horiz-adv-x="424" d="M261 27Q257 11 251 6T228 0H168L36 481Q30 508 56 508H101L189 193L211 74H217L238 193L320 481Q324 497 331 502T354 508H395L261 27Z" />
<glyph unicode="w" glyph-name="w" horiz-adv-x="584" d="M480 25Q478 13 473 7T455 0H381L329 208L300 336H294L264 208L216 26Q211 11 204 6T185 0H115L30 488Q27 508 45 508H100L167 68H174L254 370Q259 387 276 388H342L421 68H425L488 488Q490 500 495 504T513
508H560L480 25Z" />
<glyph unicode="x" glyph-name="x" horiz-adv-x="405" d="M173 377L200 309H206L234 377L300 508H351Q369 508 370 500T367 484L240 252L369 24Q374 16 373 8T353 0H304L229 138L201 207H195L169 138L105 0H54Q36 0 35 8T38 24L156 262L37 484Q32 492 33 500T53
508H102L173 377Z" />
<glyph unicode="y" glyph-name="y" horiz-adv-x="424" d="M396 508L207 -174Q202 -190 196 -195T173 -201H129L182 0H156L33 481Q27 508 53 508H98L183 185L203 64H209L234 184L321 481Q325 497 332 502T355 508H396Z" />
<glyph unicode="z" glyph-name="z" horiz-adv-x="368" d="M63 0Q47 0 43 5T38 27V58L243 450H47V481Q47 497 51 502T72 508H293Q309 508 313 503T318 481V450L114 58H318V27Q318 11 314 6T293 0H63Z" />
<glyph unicode="{" glyph-name="braceleft" horiz-adv-x="363" d="M207 -13Q207 -44 220 -57T264 -70H302Q318 -70 322 -75T327 -97V-128H222Q170 -128 149 -107T127 -33V231Q127 251 125 262T116 279T98 286T68 287H48Q31 286 27 293T22 316Q22 332 26 338T48
345H69Q87 345 98 346T116 354T125 371T127 401V665Q127 717 148 738T222 760H327V729Q327 713 323 708T302 702H264Q233 702 220 689T207 645V411Q207 364 195 342T151 317V315Q183 313 195 292T207 221V-13Z" />
<glyph unicode="|" glyph-name="bar" horiz-adv-x="223" d="M150 760V-101Q150 -117 145 -122T123 -128H74V733Q74 749 79 754T101 760H150Z" />
<glyph unicode="}" glyph-name="braceright" horiz-adv-x="363" d="M156 221Q156 270 168 291T212 315V317Q180 319 168 341T156 411V645Q156 676 143 689T99 702H61Q45 702 41 707T36 729V760H141Q193 760 214 739T236 665V401Q236 382 238 371T246 354T264 347T294
345H315Q332 345 336 339T341 316Q341 300 337 293T315 287H295Q277 287 266 286T248 280T239 263T236 231V-33Q236 -85 215 -106T141 -128H36V-97Q36 -81 40 -76T61 -70H99Q130 -70 143 -57T156 -13V221Z" />
<glyph unicode="~" glyph-name="asciitilde" horiz-adv-x="457" d="M192 358Q180 370 170 377T150 384Q136 384 118 366L66 314Q49 339 49 359Q49 379 68 397L84 414Q120 450 151 450Q182 450 218 414L266 366Q278 354 288 347T308 340Q322 340 340 358L392 410Q409
385 409 365Q409 345 390 327L374 310Q336 274 307 274Q276 274 240 310L192 358Z" />
<glyph unicode="&#xa0;" glyph-name="nbspace" horiz-adv-x="195" />
<glyph unicode="&#xa1;" glyph-name="exclamdown" horiz-adv-x="226" d="M73 -250V263Q73 279 78 284T100 290H153V-223Q153 -239 148 -244T126 -250H73ZM65 450H126Q142 450 147 445T153 423V370H92Q76 370 71 375T65 397V450Z" />
<glyph unicode="&#xa2;" glyph-name="cent" horiz-adv-x="424" d="M151 195Q151 164 159 151T198 138H365Q359 109 347 95T305 80H264V27Q264 11 259 6T237 0H184V80H166Q114 80 93 101T71 175V493Q71 545 92 566T166 588H184V654Q184 670 189 675T211 681H264V588H305Q334
588 346 574T365 530H198Q167 530 159 517T151 473V195Z" />
<glyph unicode="&#xa3;" glyph-name="sterling" horiz-adv-x="443" d="M217 58H308Q340 58 353 44T372 0H108Q76 0 63 14T44 58H137V605Q137 657 158 678T232 700H327Q359 700 372 686T391 642H264Q249 642 240 640T225 632T219 615T217 585V450H325Q341 450 345
445T350 423V392H217V58Z" />
<glyph unicode="&#xa4;" glyph-name="currency" horiz-adv-x="508" d="M54 232L115 293Q108 313 108 345V465Q108 485 111 502L66 548Q55 559 55 567T66 586L103 623L169 557Q184 560 203 560H301Q308 560 314 560T327 558L380 611Q391 622 399 622T418 611L455
574L390 509Q396 491 396 465V345Q396 323 392 308L443 258Q454 247 454 239T443 220L406 183L336 253Q321 250 301 250H203Q190 250 185 251L129 195Q118 184 110 184T91 195L54 232ZM188 365Q188 334 201 321T245 308H259Q290 308 303 321T316 365V445Q316 476
303 489T259 502H245Q214 502 201 489T188 445V365Z" />
<glyph unicode="&#xa5;" glyph-name="yen" horiz-adv-x="489" d="M53 241H204V293H80Q64 293 59 298T53 320V351H181L53 673Q47 689 54 694T78 700H121L208 477L246 359H252L289 477L363 673Q368 688 375 694T399 700H444L306 351H408Q424 351 429 346T435 324V293H284V241H407Q423
241 428 236T434 214V183H284V28Q284 11 278 6T256 0H204V183H80Q64 183 59 188T53 210V241Z" />
<glyph unicode="&#xa6;" glyph-name="brokenbar" horiz-adv-x="223" d="M150 170V-213Q150 -229 145 -234T123 -240H75V143Q75 159 80 164T102 170H150ZM150 760V377Q150 361 145 356T123 350H75V733Q75 749 80 754T102 760H150Z" />
<glyph unicode="&#xa7;" glyph-name="section" horiz-adv-x="418" d="M358 337Q358 297 338 280T278 255V389Q278 420 270 433T231 446H155Q103 446 82 467T60 541V605Q60 657 81 678T155 700H268Q297 700 309 686T328 642H187Q156 642 148 629T140 585V561Q140
530 148 517T187 504H263Q315 504 336 483T358 409V337ZM60 364Q60 404 80 421T140 446V312Q140 281 148 268T187 255H263Q315 255 336 234T358 160V96Q358 44 337 23T263 1H150Q121 1 109 15T90 59H231Q262 59 270 72T278 116V140Q278 171 270 184T231 197H155Q103
197 82 218T60 292V364Z" />
<glyph unicode="&#xa8;" glyph-name="dieresis" horiz-adv-x="342" d="M148 600H87Q71 600 66 605T60 627V680H121Q137 680 142 675T148 653V600ZM282 600H221Q205 600 200 605T194 627V680H255Q271 680 276 675T282 653V600Z" />
<glyph unicode="&#xa9;" glyph-name="copyright" horiz-adv-x="674" d="M150 115Q150 84 158 71T197 58H477Q508 58 516 71T524 115V585Q524 616 516 629T477 642H197Q166 642 158 629T150 585V115ZM70 605Q70 657 91 678T165 700H509Q561 700 582 679T604 605V95Q604
43 583 22T509 0H165Q113 0 92 21T70 95V605ZM425 585Q441 585 445 580T450 558V527H337Q306 527 298 514T290 470V232Q290 201 298 188T337 175H450V144Q450 128 446 123T425 117H305Q253 117 232 138T210 212V490Q210 542 231 563T305 585H425Z" />
<glyph unicode="&#xaa;" glyph-name="ordfeminine" horiz-adv-x="394" d="M148 300Q96 300 75 321T53 395V456Q53 508 74 529T148 551H247V585Q247 616 239 629T200 642H73Q79 671 91 685T133 700H232Q284 700 305 679T327 605V300H274Q258 300 253 305T247 327V493H185Q154
493 141 480T128 436V415Q128 384 141 371T185 358H207V327Q207 311 203 306T182 300H148Z" />
<glyph unicode="&#xab;" glyph-name="guillemotleft" horiz-adv-x="445" d="M126 297L183 239Q198 224 209 202T221 157Q221 140 212 127L46 292V302L214 468Q222 456 222 439Q222 417 211 395T184 357L126 299V297ZM281 297L338 239Q353 224 364 202T376 157Q376
140 367 127L201 292V302L369 468Q377 456 377 439Q377 417 366 395T339 357L281 299V297Z" />
<glyph unicode="&#xac;" glyph-name="logicalnot" horiz-adv-x="436" d="M68 390H341Q357 390 362 386T368 365V228H315Q299 228 294 232T288 253V332H95Q79 332 74 337T68 359V390Z" />
<glyph unicode="&#xad;" glyph-name="uni00AD" horiz-adv-x="432" d="M66 392H339Q355 392 360 387T366 365V334H93Q77 334 72 339T66 361V392Z" />
<glyph unicode="&#xae;" glyph-name="registered" horiz-adv-x="674" d="M150 115Q150 84 158 71T197 58H477Q508 58 516 71T524 115V585Q524 616 516 629T477 642H197Q166 642 158 629T150 585V115ZM70 605Q70 657 91 678T165 700H509Q561 700 582 679T604 605V95Q604
43 583 22T509 0H165Q113 0 92 21T70 95V605ZM372 585Q424 585 445 564T467 490V424Q467 382 453 360T407 332L472 118H431Q415 118 408 123T395 145L339 329H275V145Q275 129 270 124T248 118H205V558Q205 574 210 579T232 585H372ZM397 470Q397 501 389 514T350
527H275V377H350Q381 377 389 390T397 434V470Z" />
<glyph unicode="&#xaf;" glyph-name="overscore" horiz-adv-x="450" d="M0 651H423Q439 651 444 646T450 624V593H27Q11 593 6 598T0 620V651Z" />
<glyph unicode="&#xb0;" glyph-name="degree" horiz-adv-x="393" d="M45 562Q45 593 57 621T89 669T137 702T196 714Q227 714 255 702T303 670T336 621T348 562Q348 531 336 504T304 456T255 423T196 411Q165 411 138 423T90 455T57 503T45 562ZM105 562Q105 543
112 527T131 498T160 478T196 470Q215 470 232 477T261 497T281 526T288 562Q288 581 281 598T262 627T232 647T196 655Q177 655 161 648T132 628T112 598T105 562Z" />
<glyph unicode="&#xb1;" glyph-name="plusminus" horiz-adv-x="436" d="M247 512V392H341Q357 392 362 387T368 365V334H247V239Q247 223 242 218T220 212H189V334H95Q79 334 74 339T68 361V392H189V485Q189 501 194 506T216 512H247ZM68 190H341Q357 190 362
185T368 163V132H95Q79 132 74 137T68 159V190Z" />
<glyph unicode="&#xb2;" glyph-name="twosuperior" horiz-adv-x="352" d="M57 300V358Q108 415 138 444T184 491T205 521T210 558V585Q210 616 202 629T163 642H56Q62 671 74 685T116 700H195Q247 700 268 679T290 605V548Q290 525 276 502T241 455T194 407T146
358H290V327Q290 311 285 306T263 300H57Z" />
<glyph unicode="&#xb3;" glyph-name="threesuperior" horiz-adv-x="346" d="M167 553Q186 554 196 562T209 599Q207 623 199 632T160 642H53Q59 671 71 685T113 700H192Q244 700 265 678T287 610Q287 571 274 554T232 530V528Q260 520 273 499T287 438Q287 397
282 371T266 328T236 306T192 300H113Q84 300 72 314T53 358H160Q191 358 199 375T207 420Q207 469 196 482T150 495H103V526Q103 542 108 547T130 553H167Z" />
<glyph unicode="&#xb4;" glyph-name="acute" horiz-adv-x="255" d="M92 559H66Q48 559 48 568T50 583L107 700H160Q175 700 180 695T185 676L92 559Z" />
<glyph unicode="&#xb5;" glyph-name="mu" horiz-adv-x="426" d="M73 423Q73 439 78 444T100 450H153V103Q154 79 163 69T200 58H247V27Q247 11 243 6T222 0H168H153V-174Q153 -190 148 -195T126 -201H73V423ZM287 0V423Q287 439 292 444T314 450H367V27Q367 11
362 6T340 0H287Z" />
<glyph unicode="&#xb6;" glyph-name="paragraph" horiz-adv-x="464" d="M226 700Q242 700 247 695T253 673V0H200Q184 0 179 5T173 27V374H146Q94 374 73 395T51 469V605Q51 657 72 678T146 700H226ZM389 700V27Q389 11 384 6T362 0H309V673Q309 689 314 694T336
700H389Z" />
<glyph unicode="&#xb7;" glyph-name="middot" horiz-adv-x="242" d="M58 303Q58 341 76 356T121 371Q147 371 165 356T184 303Q184 265 166 250T121 235Q95 235 77 250T58 303Z" />
<glyph unicode="&#xb8;" glyph-name="cedilla" horiz-adv-x="251" d="M160 31V-73Q160 -89 155 -94T133 -100H102V4Q102 20 107 25T129 31H160Z" />
<glyph unicode="&#xb9;" glyph-name="onesuperior" horiz-adv-x="215" d="M147 327Q147 311 142 306T120 300H67V617Q67 658 87 675T147 700V327Z" />
<glyph unicode="&#xba;" glyph-name="ordmasculine" horiz-adv-x="398" d="M62 605Q62 657 83 678T157 700H241Q293 700 314 679T336 605V395Q336 343 315 322T241 300H157Q105 300 84 321T62 395V605ZM189 642Q158 642 150 629T142 585V415Q142 384 150 371T189
358H209Q240 358 248 371T256 415V585Q256 616 248 629T209 642H189Z" />
<glyph unicode="&#xbb;" glyph-name="guillemotright" horiz-adv-x="445" d="M318 299L260 357Q245 372 234 394T222 439Q222 456 230 468L398 302V292L232 127Q223 140 223 157Q223 179 234 201T261 239L318 297V299ZM163 299L105 357Q90 372 79 394T67 439Q67
456 75 468L243 302V292L77 127Q68 140 68 157Q68 179 79 201T106 239L163 297V299Z" />
<glyph unicode="&#xbc;" glyph-name="onequarter" horiz-adv-x="685" d="M510 714L175 27Q167 11 159 6T135 0H82L417 687Q425 703 433 708T457 714H510ZM147 327Q147 311 142 306T120 300H67V617Q67 658 87 675T147 700V327ZM576 400V136H640Q634 107 621 93T576
78V28Q576 12 571 7T549 1H501V78H391Q375 78 370 83T364 105V136L485 400H576ZM501 136V291H499L428 136H501Z" />
<glyph unicode="&#xbd;" glyph-name="onehalf" horiz-adv-x="681" d="M505 714L170 27Q162 11 154 6T130 0H77L412 687Q420 703 428 708T452 714H505ZM400 327Q400 311 395 306T373 300H320V617Q320 658 340 675T400 700V327ZM396 1V59Q447 116 477 145T523 192T544
222T549 259V286Q549 317 541 330T502 343H395Q401 372 413 386T455 401H534Q586 401 607 380T629 306V249Q629 226 615 203T580 156T533 108T485 59H629V28Q629 12 624 7T602 1H396Z" />
<glyph unicode="&#xbe;" glyph-name="threequarters" horiz-adv-x="809" d="M634 714L299 27Q291 11 283 6T259 0H206L541 687Q549 703 557 708T581 714H634ZM168 553Q187 554 197 562T210 599Q208 623 200 632T161 642H54Q60 671 72 685T114 700H193Q245 700
266 678T288 610Q288 571 275 554T233 530V528Q261 520 274 499T288 438Q288 397 283 371T267 328T237 306T193 300H114Q85 300 73 314T54 358H161Q192 358 200 375T208 420Q208 469 197 482T151 495H104V526Q104 542 109 547T131 553H168ZM700 400V136H764Q758
107 745 93T700 78V28Q700 12 695 7T673 1H625V78H515Q499 78 494 83T488 105V136L609 400H700ZM625 136V291H623L552 136H625Z" />
<glyph unicode="&#xbf;" glyph-name="questiondown" horiz-adv-x="379" d="M194 451H255Q271 451 276 446T282 424V371H221Q205 371 200 376T194 398V451ZM282 136Q282 84 261 63T187 41H180Q149 41 141 28T133 -16V-134Q133 -165 141 -178T180 -191H329Q323 -220
311 -234T269 -249H148Q96 -249 75 -228T53 -154V4Q53 56 74 77T148 99H155Q186 99 194 112T202 156V268Q202 284 207 289T229 295H282V136Z" />
<glyph unicode="&#xc0;" glyph-name="Agrave" horiz-adv-x="477" d="M152 334V27Q152 11 147 6T125 0H72V605Q72 657 93 678T167 700H311Q363 700 384 679T406 605V27Q406 11 401 6T379 0H326V585Q326 614 319 627T285 642H193Q166 640 159 627T152 585V392H286V361Q286
345 282 340T261 334H152ZM136 848Q136 862 141 867T161 872H210L267 755Q270 750 270 741T251 731H225L136 848Z" />
<glyph unicode="&#xc1;" glyph-name="Aacute" horiz-adv-x="477" d="M152 334V27Q152 11 147 6T125 0H72V605Q72 657 93 678T167 700H311Q363 700 384 679T406 605V27Q406 11 401 6T379 0H326V585Q326 614 319 627T285 642H193Q166 640 159 627T152 585V392H286V361Q286
345 282 340T261 334H152ZM271 731H245Q227 731 227 740T229 755L286 872H339Q354 872 359 867T364 848L271 731Z" />
<glyph unicode="&#xc2;" glyph-name="Acircumflex" horiz-adv-x="477" d="M152 334V27Q152 11 147 6T125 0H72V605Q72 657 93 678T167 700H311Q363 700 384 679T406 605V27Q406 11 401 6T379 0H326V585Q326 614 319 627T285 642H193Q166 640 159 627T152 585V392H286V361Q286
345 282 340T261 334H152ZM374 765Q381 757 377 749T359 740H332L247 824L162 740H138Q124 740 120 748T123 765L196 854Q211 872 229 872H288L374 765Z" />
<glyph unicode="&#xc3;" glyph-name="Atilde" horiz-adv-x="477" d="M152 334V27Q152 11 147 6T125 0H72V605Q72 657 93 678T167 700H311Q363 700 384 679T406 605V27Q406 11 401 6T379 0H326V585Q326 614 319 627T285 642H193Q166 640 159 627T152 585V392H286V361Q286
345 282 340T261 334H152ZM167 776Q167 762 161 759T143 756H123V772Q123 803 127 822T141 853T163 870T194 875Q215 875 230 865T258 843T283 821T311 811Q321 811 330 813T339 827V852Q339 866 345 869T363 872H383V856Q383 825 379 806T365 775T343 759T311
754Q290 754 275 764T247 785T222 807T195 817Q167 817 167 801V776Z" />
<glyph unicode="&#xc4;" glyph-name="Adieresis" horiz-adv-x="477" d="M152 334V27Q152 11 147 6T125 0H72V605Q72 657 93 678T167 700H311Q363 700 384 679T406 605V27Q406 11 401 6T379 0H326V585Q326 614 319 627T285 642H193Q166 640 159 627T152 585V392H286V361Q286
345 282 340T261 334H152ZM220 772H159Q143 772 138 777T132 799V852H193Q209 852 214 847T220 825V772ZM354 772H293Q277 772 272 777T266 799V852H327Q343 852 348 847T354 825V772Z" />
<glyph unicode="&#xc5;" glyph-name="Aring" horiz-adv-x="477" d="M152 334V27Q152 11 147 6T125 0H72V605Q72 657 93 678T167 700H311Q363 700 384 679T406 605V27Q406 11 401 6T379 0H326V585Q326 614 319 627T285 642H193Q166 640 159 627T152 585V392H286V361Q286
345 282 340T261 334H152ZM230 737Q192 737 177 749T161 799V838Q161 875 176 887T230 900H261Q299 900 314 888T330 838V799Q330 762 315 750T261 737H230ZM209 814Q209 799 210 791T215 779T226 774T246 773Q270 773 276 779T282 814V823Q282 838 281 846T276
858T265 863T245 864Q221 864 215 858T209 823V814Z" />
<glyph unicode="&#xc6;" glyph-name="AE" horiz-adv-x="643" d="M152 334V27Q152 11 147 6T125 0H72V605Q72 657 93 678T167 700H597V669Q597 653 593 648T572 642H406V392H567V361Q567 345 563 340T542 334H406V58H597V27Q597 11 592 6T570 0H326V642H193Q166
640 159 627T152 585V392H286V361Q286 345 282 340T261 334H152Z" />
<glyph unicode="&#xc7;" glyph-name="Ccedilla" horiz-adv-x="390" d="M165 0Q113 0 92 21T70 95V605Q70 657 91 678T165 700H294Q323 700 335 686T354 642H197Q166 642 158 629T150 585V115Q150 84 158 71T197 58H354V27Q354 11 350 6T329 0H250V-73Q250 -89
245 -94T223 -100H192V0H165Z" />
<glyph unicode="&#xc8;" glyph-name="Egrave" horiz-adv-x="389" d="M152 334V58H343V27Q343 11 338 6T316 0H72V673Q72 689 77 694T99 700H343V669Q343 653 339 648T318 642H152V392H313V361Q313 345 309 340T288 334H152ZM106 876Q106 890 111 895T131 900H180L237
783Q240 778 240 769T221 759H195L106 876Z" />
<glyph unicode="&#xc9;" glyph-name="Eacute" horiz-adv-x="389" d="M152 334V58H343V27Q343 11 338 6T316 0H72V673Q72 689 77 694T99 700H343V669Q343 653 339 648T318 642H152V392H313V361Q313 345 309 340T288 334H152ZM241 759H215Q197 759 197 768T199 783L256
900H309Q324 900 329 895T334 876L241 759Z" />
<glyph unicode="&#xca;" glyph-name="Ecircumflex" horiz-adv-x="389" d="M152 334V58H343V27Q343 11 338 6T316 0H72V673Q72 689 77 694T99 700H343V669Q343 653 339 648T318 642H152V392H313V361Q313 345 309 340T288 334H152ZM344 793Q351 785 347 777T329
768H302L217 852L132 768H108Q94 768 90 776T93 793L166 882Q181 900 199 900H258L344 793Z" />
<glyph unicode="&#xcb;" glyph-name="Edieresis" horiz-adv-x="389" d="M152 334V58H343V27Q343 11 338 6T316 0H72V673Q72 689 77 694T99 700H343V669Q343 653 339 648T318 642H152V392H313V361Q313 345 309 340T288 334H152ZM190 800H129Q113 800 108 805T102
827V880H163Q179 880 184 875T190 853V800ZM324 800H263Q247 800 242 805T236 827V880H297Q313 880 318 875T324 853V800Z" />
<glyph unicode="&#xcc;" glyph-name="Igrave" horiz-adv-x="224" d="M152 700V27Q152 11 147 6T125 0H72V673Q72 689 77 694T99 700H152ZM10 876Q10 890 15 895T35 900H84L141 783Q144 778 144 769T125 759H99L10 876Z" />
<glyph unicode="&#xcd;" glyph-name="Iacute" horiz-adv-x="224" d="M152 700V27Q152 11 147 6T125 0H72V673Q72 689 77 694T99 700H152ZM143 759H117Q99 759 99 768T101 783L158 900H211Q226 900 231 895T236 876L143 759Z" />
<glyph unicode="&#xce;" glyph-name="Icircumflex" horiz-adv-x="224" d="M152 700V27Q152 11 147 6T125 0H72V673Q72 689 77 694T99 700H152ZM248 793Q255 785 251 777T233 768H206L121 852L36 768H12Q-2 768 -6 776T-3 793L70 882Q85 900 103 900H162L248 793Z" />
<glyph unicode="&#xcf;" glyph-name="Idieresis" horiz-adv-x="224" d="M152 700V27Q152 11 147 6T125 0H72V673Q72 689 77 694T99 700H152ZM94 800H33Q17 800 12 805T6 827V880H67Q83 880 88 875T94 853V800ZM228 800H167Q151 800 146 805T140 827V880H201Q217
880 222 875T228 853V800Z" />
<glyph unicode="&#xd0;" glyph-name="Eth" horiz-adv-x="500" d="M76 392V673Q76 689 81 694T103 700H335Q387 700 408 679T430 605V95Q430 43 409 22T335 0H76V334H16V365Q16 381 21 386T43 392H76ZM350 585Q350 616 342 629T303 642H156V392H280Q274 363 261
349T216 334H156V58H303Q334 58 342 71T350 115V585Z" />
<glyph unicode="&#xd1;" glyph-name="Ntilde" horiz-adv-x="510" d="M338 272L393 123H399L383 275V673Q383 689 388 694T410 700H463V27Q463 11 458 6T436 0H384L199 420L143 581H137L152 441V27Q152 11 147 6T125 0H72V673Q72 689 77 694T99 700H153L338 272ZM181
804Q181 790 175 787T157 784H137V800Q137 831 141 850T155 881T177 898T208 903Q229 903 244 893T272 871T297 849T325 839Q335 839 344 841T353 855V880Q353 894 359 897T377 900H397V884Q397 853 393 834T379 803T357 787T325 782Q304 782 289 792T261 813T236
835T209 845Q181 845 181 829V804Z" />
<glyph unicode="&#xd2;" glyph-name="Ograve" horiz-adv-x="484" d="M150 115Q150 84 158 71T197 58H287Q318 58 326 71T334 115V585Q334 616 326 629T287 642H197Q166 642 158 629T150 585V115ZM70 605Q70 657 91 678T165 700H319Q371 700 392 679T414 605V95Q414
43 393 22T319 0H165Q113 0 92 21T70 95V605ZM132 875Q132 889 137 894T157 899H206L263 782Q266 777 266 768T247 758H221L132 875Z" />
<glyph unicode="&#xd3;" glyph-name="Oacute" horiz-adv-x="484" d="M150 115Q150 84 158 71T197 58H287Q318 58 326 71T334 115V585Q334 616 326 629T287 642H197Q166 642 158 629T150 585V115ZM70 605Q70 657 91 678T165 700H319Q371 700 392 679T414 605V95Q414
43 393 22T319 0H165Q113 0 92 21T70 95V605ZM257 758H231Q213 758 213 767T215 782L272 899H325Q340 899 345 894T350 875L257 758Z" />
<glyph unicode="&#xd4;" glyph-name="Ocircumflex" horiz-adv-x="484" d="M150 115Q150 84 158 71T197 58H287Q318 58 326 71T334 115V585Q334 616 326 629T287 642H197Q166 642 158 629T150 585V115ZM70 605Q70 657 91 678T165 700H319Q371 700 392 679T414 605V95Q414
43 393 22T319 0H165Q113 0 92 21T70 95V605ZM372 792Q379 784 375 776T357 767H330L245 851L160 767H136Q122 767 118 775T121 792L194 881Q209 899 227 899H286L372 792Z" />
<glyph unicode="&#xd5;" glyph-name="Otilde" horiz-adv-x="484" d="M150 115Q150 84 158 71T197 58H287Q318 58 326 71T334 115V585Q334 616 326 629T287 642H197Q166 642 158 629T150 585V115ZM70 605Q70 657 91 678T165 700H319Q371 700 392 679T414 605V95Q414
43 393 22T319 0H165Q113 0 92 21T70 95V605ZM163 803Q163 789 157 786T139 783H119V799Q119 830 123 849T137 880T159 897T190 902Q211 902 226 892T254 870T279 848T307 838Q317 838 326 840T335 854V879Q335 893 341 896T359 899H379V883Q379 852 375 833T361
802T339 786T307 781Q286 781 271 791T243 812T218 834T191 844Q163 844 163 828V803Z" />
<glyph unicode="&#xd6;" glyph-name="Odieresis" horiz-adv-x="484" d="M150 115Q150 84 158 71T197 58H287Q318 58 326 71T334 115V585Q334 616 326 629T287 642H197Q166 642 158 629T150 585V115ZM70 605Q70 657 91 678T165 700H319Q371 700 392 679T414 605V95Q414
43 393 22T319 0H165Q113 0 92 21T70 95V605ZM216 799H155Q139 799 134 804T128 826V879H189Q205 879 210 874T216 852V799ZM350 799H289Q273 799 268 804T262 826V879H323Q339 879 344 874T350 852V799Z" />
<glyph unicode="&#xd7;" glyph-name="multiply" horiz-adv-x="436" d="M133 489L218 403L285 470Q296 481 304 481T323 470L345 448L259 362L326 296Q337 285 337 277T326 257L305 235L218 321L152 255Q141 244 133 244T114 255L92 277L177 362L112 428Q101 439
101 447T112 467L133 489Z" />
<glyph unicode="&#xd8;" glyph-name="Oslash" horiz-adv-x="518" d="M-6 10L96 164V605Q96 657 117 678T191 700H345Q384 700 405 688T435 647L439 653Q449 669 458 674T483 680H520L440 559V95Q440 43 419 22T345 0H191Q145 0 124 16T97 72L74 37Q64 21 55 16T31
10H-6ZM360 554V585Q360 616 352 629T313 642H223Q192 642 184 629T176 585V275L360 554ZM360 458L176 181V115Q176 84 184 71T223 58H313Q344 58 352 71T360 115V458Z" />
<glyph unicode="&#xd9;" glyph-name="Ugrave" horiz-adv-x="462" d="M663 700V95Q663 43 642 22T568 0H409Q357 0 336 21T314 95V673Q314 689 319 694T341 700H394V115Q394 84 402 71T441 58H536Q567 58 575 71T583 115V673Q583 689 588 694T610 700H663ZM125
876Q125 890 130 895T150 900H199L256 783Q259 778 259 769T240 759H214L125 876Z" />
<glyph unicode="&#xda;" glyph-name="Uacute" horiz-adv-x="462" d="M663 700V95Q663 43 642 22T568 0H409Q357 0 336 21T314 95V673Q314 689 319 694T341 700H394V115Q394 84 402 71T441 58H536Q567 58 575 71T583 115V673Q583 689 588 694T610 700H663ZM251
759H225Q207 759 207 768T209 783L266 900H319Q334 900 339 895T344 876L251 759Z" />
<glyph unicode="&#xdb;" glyph-name="Ucircumflex" horiz-adv-x="462" d="M663 700V95Q663 43 642 22T568 0H409Q357 0 336 21T314 95V673Q314 689 319 694T341 700H394V115Q394 84 402 71T441 58H536Q567 58 575 71T583 115V673Q583 689 588 694T610 700H663ZM361
793Q368 785 364 777T346 768H319L234 852L149 768H125Q111 768 107 776T110 793L183 882Q198 900 216 900H275L361 793Z" />
<glyph unicode="&#xdc;" glyph-name="Udieresis" horiz-adv-x="462" d="M663 700V95Q663 43 642 22T568 0H409Q357 0 336 21T314 95V673Q314 689 319 694T341 700H394V115Q394 84 402 71T441 58H536Q567 58 575 71T583 115V673Q583 689 588 694T610 700H663ZM208
800H147Q131 800 126 805T120 827V880H181Q197 880 202 875T208 853V800ZM342 800H281Q265 800 260 805T254 827V880H315Q331 880 336 875T342 853V800Z" />
<glyph unicode="&#xdd;" glyph-name="Yacute" horiz-adv-x="410" d="M339 700L426 477L464 359H470L507 477L581 673Q586 688 593 694T617 700H662L502 294V28Q502 11 496 6T474 0H422V294L271 673Q265 689 272 694T296 700H339ZM213 751H187Q169 751 169 760T171
775L228 892H281Q296 892 301 887T306 868L213 751Z" />
<glyph unicode="&#xde;" glyph-name="Thorn" horiz-adv-x="456" d="M152 700V492Q158 521 170 535T212 550H311Q363 550 384 529T406 455V245Q406 193 385 172T311 150H152V27Q152 11 147 6T125 0H72V673Q72 689 77 694T99 700H152ZM326 435Q326 466 318 479T279
492H152V208H279Q310 208 318 221T326 265V435Z" />
<glyph unicode="&#xdf;" glyph-name="germandbls" horiz-adv-x="503" d="M255 0Q239 0 235 5T230 27V58H313Q344 58 352 71T360 115V335Q360 366 352 379T313 392H190V-223Q190 -239 185 -244T163 -250H110V392H47Q31 392 27 397T22 419V450H110V673Q110 689 115
694T137 700H345Q397 700 418 679T440 605V517Q440 476 427 455T385 426Q414 418 427 397T440 335V95Q440 43 419 22T345 0H255ZM190 642V450H313Q344 450 352 463T360 507V585Q360 616 352 629T313 642H190Z" />
<glyph unicode="&#xe0;" glyph-name="agrave" horiz-adv-x="436" d="M291 393Q291 424 283 437T244 450H71Q77 479 89 493T131 508H276Q328 508 349 487T371 413V0H318Q302 0 297 5T291 27V393ZM146 0Q94 0 73 21T51 95V205Q51 257 72 278T146 300H231Q260 300
272 286T291 242H178Q147 242 139 229T131 185V107Q131 76 142 67T185 58H251V27Q251 11 247 6T226 0H146ZM116 676Q116 690 121 695T141 700H190L247 583Q250 578 250 569T231 559H205L116 676Z" />
<glyph unicode="&#xe1;" glyph-name="aacute" horiz-adv-x="436" d="M291 393Q291 424 283 437T244 450H71Q77 479 89 493T131 508H276Q328 508 349 487T371 413V0H318Q302 0 297 5T291 27V393ZM146 0Q94 0 73 21T51 95V205Q51 257 72 278T146 300H231Q260 300
272 286T291 242H178Q147 242 139 229T131 185V107Q131 76 142 67T185 58H251V27Q251 11 247 6T226 0H146ZM241 559H215Q197 559 197 568T199 583L256 700H309Q324 700 329 695T334 676L241 559Z" />
<glyph unicode="&#xe2;" glyph-name="acircumflex" horiz-adv-x="436" d="M291 393Q291 424 283 437T244 450H71Q77 479 89 493T131 508H276Q328 508 349 487T371 413V0H318Q302 0 297 5T291 27V393ZM146 0Q94 0 73 21T51 95V205Q51 257 72 278T146 300H231Q260
300 272 286T291 242H178Q147 242 139 229T131 185V107Q131 76 142 67T185 58H251V27Q251 11 247 6T226 0H146ZM344 593Q351 585 347 577T329 568H302L217 652L132 568H108Q94 568 90 576T93 593L166 682Q181 700 199 700H258L344 593Z" />
<glyph unicode="&#xe3;" glyph-name="atilde" horiz-adv-x="436" d="M291 393Q291 424 283 437T244 450H71Q77 479 89 493T131 508H276Q328 508 349 487T371 413V0H318Q302 0 297 5T291 27V393ZM146 0Q94 0 73 21T51 95V205Q51 257 72 278T146 300H231Q260 300
272 286T291 242H178Q147 242 139 229T131 185V107Q131 76 142 67T185 58H251V27Q251 11 247 6T226 0H146ZM137 604Q137 590 131 587T113 584H93V600Q93 631 97 650T111 681T133 698T164 703Q185 703 200 693T228 671T253 649T281 639Q291 639 300 641T309 655V680Q309
694 315 697T333 700H353V684Q353 653 349 634T335 603T313 587T281 582Q260 582 245 592T217 613T192 635T165 645Q137 645 137 629V604Z" />
<glyph unicode="&#xe4;" glyph-name="adieresis" horiz-adv-x="436" d="M291 393Q291 424 283 437T244 450H71Q77 479 89 493T131 508H276Q328 508 349 487T371 413V0H318Q302 0 297 5T291 27V393ZM146 0Q94 0 73 21T51 95V205Q51 257 72 278T146 300H231Q260
300 272 286T291 242H178Q147 242 139 229T131 185V107Q131 76 142 67T185 58H251V27Q251 11 247 6T226 0H146ZM190 600H129Q113 600 108 605T102 627V680H163Q179 680 184 675T190 653V600ZM324 600H263Q247 600 242 605T236 627V680H297Q313 680 318 675T324
653V600Z" />
<glyph unicode="&#xe5;" glyph-name="aring" horiz-adv-x="436" d="M291 393Q291 424 283 437T244 450H71Q77 479 89 493T131 508H276Q328 508 349 487T371 413V0H318Q302 0 297 5T291 27V393ZM146 0Q94 0 73 21T51 95V205Q51 257 72 278T146 300H231Q260 300
272 286T291 242H178Q147 242 139 229T131 185V107Q131 76 142 67T185 58H251V27Q251 11 247 6T226 0H146ZM220 565Q182 565 167 577T151 627V666Q151 703 166 715T220 728H251Q289 728 304 716T320 666V627Q320 590 305 578T251 565H220ZM199 642Q199 627 200
619T205 607T216 602T236 601Q260 601 266 607T272 642V651Q272 666 271 674T266 686T255 691T235 692Q211 692 205 686T199 651V642Z" />
<glyph unicode="&#xe6;" glyph-name="ae" horiz-adv-x="671" d="M572 58V27Q572 11 568 6T547 0H396Q344 0 323 21T301 95V402Q300 426 293 437Q285 450 254 450H71Q74 464 84 475T109 493T140 504T171 508H286Q320 508 341 499Q362 508 396 508H506Q558 508 579
487T601 413V301Q601 249 580 228T506 206H446Q430 206 426 211T421 233V264H479Q510 264 518 277T526 321V398Q526 429 516 439T475 450H432Q399 450 390 438Q382 428 381 402V115Q381 84 389 71T428 58H572ZM131 115Q131 84 144 71T188 58H301Q295 29 283 15T241
0H146Q94 0 73 21T51 95V205Q51 257 72 278T146 300H241Q270 300 282 286T301 242H188Q157 242 144 229T131 185V115Z" />
<glyph unicode="&#xe7;" glyph-name="ccedilla" horiz-adv-x="355" d="M288 508Q304 508 308 503T313 481V450H190Q159 450 151 437T143 393V115Q143 84 151 71T190 58H313V27Q313 11 309 6T288 0H232V-73Q232 -89 227 -94T205 -100H174V0H158Q106 0 85 21T63
95V413Q63 465 84 486T158 508H288Z" />
<glyph unicode="&#xe8;" glyph-name="egrave" horiz-adv-x="433" d="M334 58V27Q334 11 330 6T309 0H158Q106 0 85 21T63 95V413Q63 465 84 486T158 508H268Q320 508 341 487T363 413V301Q363 249 342 228T268 206H208Q192 206 188 211T183 233V264H241Q272 264
280 277T288 321V398Q288 429 278 439T237 450H194Q161 450 152 439T143 393V115Q143 84 151 71T190 58H334ZM119 676Q119 690 124 695T144 700H193L250 583Q253 578 253 569T234 559H208L119 676Z" />
<glyph unicode="&#xe9;" glyph-name="eacute" horiz-adv-x="433" d="M334 58V27Q334 11 330 6T309 0H158Q106 0 85 21T63 95V413Q63 465 84 486T158 508H268Q320 508 341 487T363 413V301Q363 249 342 228T268 206H208Q192 206 188 211T183 233V264H241Q272 264
280 277T288 321V398Q288 429 278 439T237 450H194Q161 450 152 439T143 393V115Q143 84 151 71T190 58H334ZM247 559H221Q203 559 203 568T205 583L262 700H315Q330 700 335 695T340 676L247 559Z" />
<glyph unicode="&#xea;" glyph-name="ecircumflex" horiz-adv-x="433" d="M334 58V27Q334 11 330 6T309 0H158Q106 0 85 21T63 95V413Q63 465 84 486T158 508H268Q320 508 341 487T363 413V301Q363 249 342 228T268 206H208Q192 206 188 211T183 233V264H241Q272
264 280 277T288 321V398Q288 429 278 439T237 450H194Q161 450 152 439T143 393V115Q143 84 151 71T190 58H334ZM350 593Q357 585 353 577T335 568H308L223 652L138 568H114Q100 568 96 576T99 593L172 682Q187 700 205 700H264L350 593Z" />
<glyph unicode="&#xeb;" glyph-name="edieresis" horiz-adv-x="433" d="M334 58V27Q334 11 330 6T309 0H158Q106 0 85 21T63 95V413Q63 465 84 486T158 508H268Q320 508 341 487T363 413V301Q363 249 342 228T268 206H208Q192 206 188 211T183 233V264H241Q272
264 280 277T288 321V398Q288 429 278 439T237 450H194Q161 450 152 439T143 393V115Q143 84 151 71T190 58H334ZM204 600H143Q127 600 122 605T116 627V680H177Q193 680 198 675T204 653V600ZM338 600H277Q261 600 256 605T250 627V680H311Q327 680 332 675T338
653V600Z" />
<glyph unicode="&#xec;" glyph-name="igrave" horiz-adv-x="210" d="M145 508V27Q145 11 140 6T118 0H65V481Q65 497 70 502T92 508H145ZM255 676Q255 690 260 695T280 700H329L386 583Q389 578 389 569T370 559H344L255 676Z" />
<glyph unicode="&#xed;" glyph-name="iacute" horiz-adv-x="210" d="M145 508V27Q145 11 140 6T118 0H65V481Q65 497 70 502T92 508H145ZM132 559H106Q88 559 88 568T90 583L147 700H200Q215 700 220 695T225 676L132 559Z" />
<glyph unicode="&#xee;" glyph-name="icircumflex" horiz-adv-x="210" d="M145 508V27Q145 11 140 6T118 0H65V481Q65 497 70 502T92 508H145ZM493 593Q500 585 496 577T478 568H451L366 652L281 568H257Q243 568 239 576T242 593L315 682Q330 700 348 700H407L493 593Z" />
<glyph unicode="&#xef;" glyph-name="idieresis" horiz-adv-x="210" d="M145 508V27Q145 11 140 6T118 0H65V481Q65 497 70 502T92 508H145ZM339 600H278Q262 600 257 605T251 627V680H312Q328 680 333 675T339 653V600ZM473 600H412Q396 600 391 605T385 627V680H446Q462
680 467 675T473 653V600Z" />
<glyph unicode="&#xf0;" glyph-name="eth" horiz-adv-x="456" d="M390 626H431Q447 626 452 621T458 599V568H390V95Q390 43 370 22T298 0H158Q106 0 85 21T63 95V413Q63 465 84 486T158 508H313V568H266Q250 568 245 573T239 595V626H313V640Q313 671 305 684T266
697H219Q225 726 237 740T279 755H298Q350 755 370 734T390 660V626ZM190 450Q159 450 151 437T143 393V115Q143 84 151 71T190 58H266Q297 58 305 71T313 115V450H190Z" />
<glyph unicode="&#xf1;" glyph-name="ntilde" horiz-adv-x="459" d="M300 508Q352 508 373 487T395 413V27Q395 11 390 6T368 0H315V393Q315 424 307 437T268 450H145V27Q145 11 140 6T118 0H65V481Q65 497 70 502T92 508H145V450Q151 479 163 493T205 508H300ZM155
604Q155 590 149 587T131 584H111V600Q111 631 115 650T129 681T151 698T182 703Q203 703 218 693T246 671T271 649T299 639Q309 639 318 641T327 655V680Q327 694 333 697T351 700H371V684Q371 653 367 634T353 603T331 587T299 582Q278 582 263 592T235 613T210
635T183 645Q155 645 155 629V604Z" />
<glyph unicode="&#xf2;" glyph-name="ograve" horiz-adv-x="456" d="M63 413Q63 465 84 486T158 508H298Q350 508 371 487T393 413V95Q393 43 372 22T298 0H158Q106 0 85 21T63 95V413ZM190 450Q159 450 151 437T143 393V115Q143 84 151 71T190 58H266Q297 58
305 71T313 115V393Q313 424 305 437T266 450H190ZM120 676Q120 690 125 695T145 700H194L251 583Q254 578 254 569T235 559H209L120 676Z" />
<glyph unicode="&#xf3;" glyph-name="oacute" horiz-adv-x="456" d="M63 413Q63 465 84 486T158 508H298Q350 508 371 487T393 413V95Q393 43 372 22T298 0H158Q106 0 85 21T63 95V413ZM190 450Q159 450 151 437T143 393V115Q143 84 151 71T190 58H266Q297 58
305 71T313 115V393Q313 424 305 437T266 450H190ZM255 559H229Q211 559 211 568T213 583L270 700H323Q338 700 343 695T348 676L255 559Z" />
<glyph unicode="&#xf4;" glyph-name="ocircumflex" horiz-adv-x="456" d="M63 413Q63 465 84 486T158 508H298Q350 508 371 487T393 413V95Q393 43 372 22T298 0H158Q106 0 85 21T63 95V413ZM190 450Q159 450 151 437T143 393V115Q143 84 151 71T190 58H266Q297
58 305 71T313 115V393Q313 424 305 437T266 450H190ZM358 593Q365 585 361 577T343 568H316L231 652L146 568H122Q108 568 104 576T107 593L180 682Q195 700 213 700H272L358 593Z" />
<glyph unicode="&#xf5;" glyph-name="otilde" horiz-adv-x="456" d="M63 413Q63 465 84 486T158 508H298Q350 508 371 487T393 413V95Q393 43 372 22T298 0H158Q106 0 85 21T63 95V413ZM190 450Q159 450 151 437T143 393V115Q143 84 151 71T190 58H266Q297 58
305 71T313 115V393Q313 424 305 437T266 450H190ZM151 604Q151 590 145 587T127 584H107V600Q107 631 111 650T125 681T147 698T178 703Q199 703 214 693T242 671T267 649T295 639Q305 639 314 641T323 655V680Q323 694 329 697T347 700H367V684Q367 653 363 634T349
603T327 587T295 582Q274 582 259 592T231 613T206 635T179 645Q151 645 151 629V604Z" />
<glyph unicode="&#xf6;" glyph-name="odieresis" horiz-adv-x="456" d="M63 413Q63 465 84 486T158 508H298Q350 508 371 487T393 413V95Q393 43 372 22T298 0H158Q106 0 85 21T63 95V413ZM190 450Q159 450 151 437T143 393V115Q143 84 151 71T190 58H266Q297
58 305 71T313 115V393Q313 424 305 437T266 450H190ZM204 600H143Q127 600 122 605T116 627V680H177Q193 680 198 675T204 653V600ZM338 600H277Q261 600 256 605T250 627V680H311Q327 680 332 675T338 653V600Z" />
<glyph unicode="&#xf7;" glyph-name="divide" horiz-adv-x="436" d="M255 470H194Q178 470 173 475T167 497V550H228Q244 550 249 545T255 523V470ZM255 150H194Q178 150 173 155T167 177V230H228Q244 230 249 225T255 203V150ZM68 390H341Q357 390 362 385T368
363V332H95Q79 332 74 337T68 359V390Z" />
<glyph unicode="&#xf8;" glyph-name="oslash" horiz-adv-x="483" d="M410 402V95Q410 43 389 22T315 0H175Q123 0 108 15T88 43L75 27Q62 11 52 6T27 0H-13L80 111V413Q80 465 101 486T175 508H315Q352 508 372 498T400 469L410 481Q423 497 433 502T459 508H499L410
402ZM160 116Q160 84 168 71T207 58H283Q314 58 322 71T330 115V318L160 116ZM160 393V195L330 397Q330 424 322 437T283 450H207Q176 450 168 437T160 393Z" />
<glyph unicode="&#xf9;" glyph-name="ugrave" horiz-adv-x="459" d="M314 0V481Q314 497 319 502T341 508H394V27Q394 11 389 6T367 0H314ZM64 481Q64 497 69 502T91 508H144V115Q144 84 152 71T191 58H274V27Q274 11 270 6T249 0H159Q107 0 86 21T64 95V481ZM154
676Q154 690 159 695T179 700H228L285 583Q288 578 288 569T269 559H243L154 676Z" />
<glyph unicode="&#xfa;" glyph-name="uacute" horiz-adv-x="459" d="M314 0V481Q314 497 319 502T341 508H394V27Q394 11 389 6T367 0H314ZM64 481Q64 497 69 502T91 508H144V115Q144 84 152 71T191 58H274V27Q274 11 270 6T249 0H159Q107 0 86 21T64 95V481ZM238
559H212Q194 559 194 568T196 583L253 700H306Q321 700 326 695T331 676L238 559Z" />
<glyph unicode="&#xfb;" glyph-name="ucircumflex" horiz-adv-x="459" d="M314 0V481Q314 497 319 502T341 508H394V27Q394 11 389 6T367 0H314ZM64 481Q64 497 69 502T91 508H144V115Q144 84 152 71T191 58H274V27Q274 11 270 6T249 0H159Q107 0 86 21T64 95V481ZM363
593Q370 585 366 577T348 568H321L236 652L151 568H127Q113 568 109 576T112 593L185 682Q200 700 218 700H277L363 593Z" />
<glyph unicode="&#xfc;" glyph-name="udieresis" horiz-adv-x="459" d="M314 0V481Q314 497 319 502T341 508H394V27Q394 11 389 6T367 0H314ZM64 481Q64 497 69 502T91 508H144V115Q144 84 152 71T191 58H274V27Q274 11 270 6T249 0H159Q107 0 86 21T64 95V481ZM206
600H145Q129 600 124 605T118 627V680H179Q195 680 200 675T206 653V600ZM340 600H279Q263 600 258 605T252 627V680H313Q329 680 334 675T340 653V600Z" />
<glyph unicode="&#xfd;" glyph-name="yacute" horiz-adv-x="424" d="M396 508L207 -174Q202 -190 196 -195T173 -201H129L182 0H156L33 481Q27 508 53 508H98L183 185L203 64H209L234 184L321 481Q325 497 332 502T355 508H396ZM210 559H184Q166 559 166 568T168
583L225 700H278Q293 700 298 695T303 676L210 559Z" />
<glyph unicode="&#xfe;" glyph-name="thorn" horiz-adv-x="459" d="M211 0Q195 0 191 5T186 27V58H269Q300 58 308 71T316 115V393Q316 424 308 437T269 450H146V-174Q146 -190 141 -195T119 -201H66V673Q66 689 71 694T93 700H146V450Q152 479 164 493T206 508H301Q353
508 374 487T396 413V95Q396 43 375 22T301 0H211Z" />
<glyph unicode="&#xff;" glyph-name="ydieresis" horiz-adv-x="424" d="M396 508L207 -174Q202 -190 196 -195T173 -201H129L182 0H156L33 481Q27 508 53 508H98L183 185L203 64H209L234 184L321 481Q325 497 332 502T355 508H396ZM195 600H134Q118 600 113 605T107
627V680H168Q184 680 189 675T195 653V600ZM329 600H268Q252 600 247 605T241 627V680H302Q318 680 323 675T329 653V600Z" />
<glyph unicode="&#x2013;" glyph-name="endash" horiz-adv-x="432" d="M66 392H339Q355 392 360 387T366 365V334H93Q77 334 72 339T66 361V392Z" />
<glyph unicode="&#x2014;" glyph-name="emdash" horiz-adv-x="549" d="M53 392H480Q496 392 501 387T507 365V334H80Q64 334 59 339T53 361V392Z" />
<glyph unicode="&#x2018;" glyph-name="quoteleft" horiz-adv-x="205" d="M116 700H119Q135 700 140 695T146 673V620H85Q69 620 64 625T58 647V722Q58 754 72 767T116 786V700Z" />
<glyph unicode="&#x2019;" glyph-name="quoteright" horiz-adv-x="197" d="M82 620H79Q63 620 58 625T52 647V700H113Q129 700 134 695T140 673V598Q140 566 126 553T82 534V620Z" />
<glyph unicode="&#x201a;" glyph-name="quotesinglbase" horiz-adv-x="215" d="M95 0H92Q76 0 71 5T65 27V80H126Q142 80 147 75T153 53V-22Q153 -54 139 -67T95 -86V0Z" />
<glyph unicode="&#x201c;" glyph-name="quotedblleft" horiz-adv-x="345" d="M116 700H119Q135 700 140 695T146 673V620H85Q69 620 64 625T58 647V722Q58 754 72 767T116 786V700ZM256 700H259Q275 700 280 695T286 673V620H225Q209 620 204 625T198 647V722Q198
754 212 767T256 786V700Z" />
<glyph unicode="&#x201d;" glyph-name="quotedblright" horiz-adv-x="337" d="M82 620H79Q63 620 58 625T52 647V700H113Q129 700 134 695T140 673V598Q140 566 126 553T82 534V620ZM222 620H219Q203 620 198 625T192 647V700H253Q269 700 274 695T280 673V598Q280
566 266 553T222 534V620Z" />
<glyph unicode="&#x201e;" glyph-name="quotedblbase" horiz-adv-x="355" d="M95 0H92Q76 0 71 5T65 27V80H126Q142 80 147 75T153 53V-22Q153 -54 139 -67T95 -86V0ZM235 0H232Q216 0 211 5T205 27V80H266Q282 80 287 75T293 53V-22Q293 -54 279 -67T235 -86V0Z" />
<glyph unicode="&#x2022;" glyph-name="bullet" horiz-adv-x="285" d="M54 356Q54 412 79 433T143 454Q180 454 206 433T232 356Q232 301 206 280T143 258Q105 258 80 279T54 356Z" />
<glyph unicode="&#x2039;" glyph-name="guilsinglleft" horiz-adv-x="290" d="M126 297L183 239Q198 224 209 202T221 157Q221 140 212 127L46 292V302L214 468Q222 456 222 439Q222 417 211 395T184 357L126 299V297Z" />
<glyph unicode="&#x203a;" glyph-name="guilsinglright" horiz-adv-x="290" d="M163 299L105 357Q90 372 79 394T67 439Q67 456 75 468L243 302V292L77 127Q68 140 68 157Q68 179 79 201T106 239L163 297V299Z" />
</font>
</defs>
</svg>
